<?xml version="1.0" standalone="no"?>
<!DOCTYPE svg PUBLIC "-//W3C//DTD SVG 1.1//EN" "http://www.w3.org/Graphics/SVG/1.1/DTD/svg11.dtd" >
<svg xmlns="http://www.w3.org/2000/svg">
<defs>
  <font id="webfont" horiz-adv-x="5846.153846153846">
    <font-face font-family="webfont"
      units-per-em="1000" ascent="1000"
      descent="0" />
    <missing-glyph horiz-adv-x="0" />
    <glyph glyph-name="360"
      unicode="&#xE001;"
      horiz-adv-x="1538.4615384615383" d="M769.2307692307692 1000C344.6153846153847 1000 0 827.6923076923076 0 615.3846153846155C0 443.0769230769231 226.1538461538462 297.6923076923076 538.4615384615385 248.4615384615386L538.4615384615385 0L846.1538461538461 307.6923076923078L538.4615384615385 615.3846153846155L538.4615384615385 405.3846153846154C296.1538461538462 448.4615384615385 153.8461538461539 551.5384615384615 153.8461538461539 615.3846153846155C153.8461538461539 696.9230769230769 387.6923076923077 846.1538461538462 769.2307692307692 846.1538461538462C1150.7692307692307 846.1538461538462 1384.6153846153845 696.9230769230769 1384.6153846153845 615.3846153846155C1384.6153846153845 559.2307692307693 1272.3076923076922 470 1076.923076923077 420.7692307692309L1076.923076923077 263.0769230769231C1348.4615384615386 322.3076923076923 1538.4615384615383 457.6923076923077 1538.4615384615383 615.3846153846155C1538.4615384615383 827.6923076923076 1193.8461538461538 1000 769.2307692307692 1000z" />
    <glyph glyph-name="accessible"
      unicode="&#xE002;"
      horiz-adv-x="700" d="M250 900A100 100 0 0 1 450 900A100 100 0 0 1 250 900M700 450L700 550C623 549 545.5 587.5 496.5 641.5L432 713C423.5000000000001 722.5 413 730 401.5 735.5C401 735.5 401 736 400.5 736L400 736C382.5 746 362.5 751 340.5 749C288 744.5 250 698 250 645.5L250 350C250 295 295 250 350 250L600 250L600 0L700 0L700 275C700 330 655 375 600 375L450 375L450 547.5C514.5 494.0000000000001 612.5 450.5 700 450zM391.5 200C371 142 315.5 100 250 100C167 100 100 167 100 250C100 315.5 142 370.5 200 391.5L200 495C86 472 0 371 0 250C0 111.9999999999999 112 0 250 0C371 0 472 86 495 200L391.5 200z" />
    <glyph glyph-name="airline-seat"
      unicode="&#xE003;"
      horiz-adv-x="857.1428571428571" d="M218.5714285714286 813.8095235714286C181.4285714285715 850.9523807142857 181.4285714285715 911.4285714285714 218.5714285714286 948.5714285714286C255.7142857142857 985.7142857142856 316.1904764285715 985.7142857142856 353.3333335714286 948.5714285714286C390.4761907142858 911.4285714285714 390.4761907142858 850.9523807142857 353.3333335714286 813.8095235714286C315.7142857142857 776.1904764285714 255.7142857142857 776.1904764285714 218.5714285714286 813.8095235714286zM142.8571428571429 309.5238092857143L142.8571428571429 738.0952378571428L47.6190476428571 738.0952378571428L47.6190476428571 309.5238092857143C47.6190476428571 178.0952357142857 154.2857142857143 71.4285714285715 285.7142857142857 71.4285714285715L571.4285714285714 71.4285714285715L571.4285714285714 166.6666642857142L285.7142857142857 166.6666642857142C206.6666664285714 166.6666642857142 142.8571428571429 230.4761928571429 142.8571428571429 309.5238092857143zM809.5238071428571 115.7142857142857L568.0952378571429 357.1428571428571L404.761905 357.1428571428571L404.761905 532.3809521428572C471.4285714285714 477.6190478571428 576.1904764285714 429.5238092857143 666.6666664285715 429.5238092857143L666.6666664285715 532.3809521428572C587.6190478571428 531.4285714285714 494.761905 573.8095235714286 444.2857142857143 629.5238092857143L377.6190478571429 703.3333335714285C368.5714285714286 713.3333335714285 357.1428571428572 721.4285714285714 344.761905 727.1428571428571C330.9523807142857 733.8095235714286 315.2380950000001 738.0952378571428 299.0476192857143 738.0952378571428L297.6190478571429 738.0952378571428C238.5714285714286 738.0952378571428 190.4761907142857 690 190.4761907142857 630.9523807142857L190.4761907142857 357.1428571428571C190.4761907142857 278.0952357142857 254.2857142857143 214.2857142857142 333.3333335714286 214.2857142857142L574.7619050000001 214.2857142857142L741.4285714285716 47.61905L809.5238071428571 115.7142857142857z" />
    <glyph glyph-name="arrow-down"
      unicode="&#xE004;"
      horiz-adv-x="631.578947368421" d="M368.421052631579 993.4210526315788L368.421052631579 216.5570173684211L557.3684210526317 412.828947368421L631.5789473684212 335.5263157894737L315.7894736842106 6.578947368421L1e-13 335.5263157894737L74.2105263157896 412.828947368421L263.1578947368422 216.5570173684211L263.1578947368422 993.4210526315788z" />
    <glyph glyph-name="arrow-right-alt"
      unicode="&#xE005;"
      horiz-adv-x="1375" d="M876.2499999999998 625L0 625L0 375L876.2499999999998 375L876.2499999999998 0L1375 500L876.2499999999998 1000z" />
    <glyph glyph-name="arrow-right"
      unicode="&#xE006;"
      horiz-adv-x="1500" d="M0 583.3333333333334L1180.8333333333333 583.3333333333334L882.4999999999999 882.5L1000 1000L1500 500L1000 0L882.4999999999999 117.5000000000001L1180.8333333333333 416.6666666666668L0 416.6666666666668z" />
    <glyph glyph-name="assistance"
      unicode="&#xE007;"
      horiz-adv-x="1000" d="M773.3212500000001 122.63125L651.85875 244.30625C694.28375 269.61875 729.79625 305.00625 755.23375 347.35625L876.80875 225.7687500000001C847.97125 186.2312499999999 813.1337500000001 151.43125 773.55875 122.63125L773.3212500000001 122.63125zM254.23375 103.74375L378.94625 228.3562500000001C455.82125 194.0687499999999 543.64625 194.0687499999999 620.50875 228.3562500000001L745.00875 103.4187499999999C594.75875 10.1062499999999 404.58375 10.1062499999999 254.33375 103.4187499999999L254.23375 103.74375zM122.64625 226.21875L244.34625 347.90625C269.6837500000001 305.5187500000001 305.1212500000001 270.0437500000001 347.48375 244.65625L225.9087500000001 122.9562500000001C186.37125 151.80625 151.57125 186.64375 122.75875 226.21875L122.64625 226.21875zM103.32125 745.09375L226.92125 621.5062499999999C227.45875 621.09375 228.02125 620.71875 228.60875 620.38125C194.28375 543.46875 194.28375 455.59375 228.60875 378.69375L103.55875 254.65625C10.34625 404.84375 10.34625 594.89375 103.55875 745.09375L103.32125 745.09375zM225.68375 876.89375L347.25875 755.31875C304.92125 729.88125 269.52125 694.36875 244.23375 651.95625L122.53375 773.64375C151.33375 813.21875 186.13375 848.05625 225.68375 876.89375L225.68375 876.89375zM745.34625 896.44375L620.74625 771.84375C543.70875 806.29375 455.6462500000001 806.29375 378.60875 771.84375L254.1212500000001 896.10625C404.49625 989.64375 594.95875 989.64375 745.34625 896.10625L745.34625 896.44375zM877.0337499999999 774.08125L755.35875 652.51875C729.94625 694.88125 694.4712499999999 730.30625 652.09625 755.65625L773.77125 877.23125C813.34625 848.43125 848.1837499999999 813.63125 877.0337499999999 774.08125L877.0337499999999 774.08125zM499.95875 236.21875C354.25875 236.21875 236.13375 354.3312500000001 236.13375 500.04375C236.13375 645.7437500000001 354.25875 763.85625 499.95875 763.85625C645.6587499999999 763.85625 763.77125 645.7437500000001 763.77125 500.04375C763.59625 354.4187500000001 645.58375 236.41875 499.95875 236.21875L499.95875 236.21875zM895.90875 254.19375L771.52125 378.69375C806.04625 455.79375 806.04625 543.95625 771.52125 621.0562500000001L896.24625 745.65625C989.87125 595.21875 989.87125 404.64375 896.24625 254.19375L895.90875 254.19375zM915.68375 222.5062499999999C1069.05875 451.99375 1007.37125 762.35625 777.88375 915.73125C607.27125 1029.76875 384.27125 1027.91875 215.57125 911.05625C165.93375 876.60625 122.89625 833.53125 88.49625 783.85625C-29.50375 613.20625 -29.50375 387.3312500000001 88.49625 216.6687500000001C122.60875 167.1687499999999 165.29625 124.1687499999999 214.57125 89.70625C214.57125 89.70625 214.57125 88.9187499999999 215.34625 88.58125C217.17125 86.84375 219.35875 85.5312499999999 221.75875 84.76875C447.60875 -66.8812500000001 753.29625 -9.76875 909.17125 213.18125C910.00875 213.64375 910.78375 214.1687500000001 911.53375 214.75625C913.59625 216.9187499999999 915.03375 219.6062499999999 915.68375 222.5062499999999L915.68375 222.5062499999999z" />
    <glyph glyph-name="baggage"
      unicode="&#xE008;"
      horiz-adv-x="1000" d="M41.9302325 133.5023249999999L41.9302325 620.6302321428572C41.9302325 652.0720928571428 67.0813953571429 677.2348835714286 98.5348835714286 677.2348835714286L197.0697675 677.2348835714286L197.0697675 76.8976750000001L98.5348835714286 76.8976750000001C67.0813953571429 76.8976750000001 41.9302325 102.0488357142857 41.9302325 133.5023249999999L41.9302325 133.5023249999999zM241.0930232142857 76.8976750000001L291.4069767857144 76.8976750000001L291.4069767857144 677.2348835714286L241.0930232142857 677.2348835714286L241.0930232142857 76.8976750000001zM331.2441860714286 76.8976750000001L685.5348821428572 76.8976750000001L685.5348821428572 677.2348835714286L331.2441860714286 677.2348835714286L331.2441860714286 76.8976750000001zM331.2441860714286 763.1883721428571C331.2441860714286 796.7348835714286 358.5 823.9790696428572 392.0348821428572 823.9790696428572L626.8372107142858 823.9790696428572C660.3837214285716 823.9790696428572 687.6279071428572 796.7348835714286 687.6279071428572 763.1883721428571L687.6279071428572 719.1651164285714L331.2441860714286 719.1651164285714L331.2441860714286 763.1883721428571zM716.9883714285714 882.6883721428571L796.6395357142858 935.0953489285714L830.1860464285714 884.7813953571429L750.5232571428571 834.4674417857143C737.9418607142857 826.0837210714285 719.0697678571429 828.1767442857142 708.593025 842.8511628571429C700.2093035714286 855.4209303571429 702.3023250000001 874.2930232142858 716.9883714285714 882.6883721428571L716.9883714285714 882.6883721428571zM729.5581392857143 76.8976750000001L779.8720928571428 76.8976750000001L779.8720928571428 677.2348835714286L729.5581392857143 677.2348835714286L729.5581392857143 76.8976750000001zM819.7093035714286 677.2348835714286L899.3720928571428 677.2348835714286C930.8139535714286 677.2348835714286 955.9651178571428 652.0720928571428 955.9651178571428 620.6302321428572L955.9651178571428 133.5023249999999C955.9651178571428 102.0488357142857 930.8139535714286 76.8976750000001 899.3720928571428 76.8976750000001L819.7093035714286 76.8976750000001L819.7093035714286 677.2348835714286zM220.1279071428572 34.9674428571428L312.3720928571429 34.9674428571428L708.593025 34.9674428571428L800.8488357142857 34.9674428571428L901.4651178571428 34.9674428571428C955.9651178571428 34.9674428571428 1000 79.0023249999999 1000 133.5023249999999L1000 620.6302321428572C1000 675.1418603571428 955.9651178571428 719.1651164285714 901.4651178571428 719.1651164285714L800.8488357142857 719.1651164285714L729.5581392857143 719.1651164285714L729.5581392857143 763.1883721428571C729.5581392857143 771.5720928571428 727.4651178571428 779.9558139285714 725.3604642857142 788.3395350000001L733.7558142857143 788.3395350000001C748.4302321428571 788.3395350000001 761.0116285714286 792.5372092857143 773.5813964285715 800.9209303571429L870.0232571428571 865.9093025C880.5 872.2 882.60465 884.7813953571429 876.3139535714287 895.2581396428571L819.7093035714286 979.1186046428572C817.60465 983.3046511785714 811.3255821428572 987.5023255714286 807.1279071428572 987.5023255714286C800.8488357142857 989.60697675 796.6395357142858 987.5023255714286 790.3488357142857 985.4093023214286L693.9186035714285 918.3279071428572C672.9651178571428 903.6418603571428 662.4767428571429 880.5837210714286 662.4767428571429 857.5255814285714C651.9883714285714 861.7116278571428 639.4186035714285 863.8162789285714 628.9302321428571 863.8162789285714L392.0348821428572 863.8162789285714C335.4302325 863.8162789285714 289.3023257142858 817.6883721428571 289.3023257142858 761.0953489285714L289.3023257142858 717.060465L218.0348835714286 717.060465L98.5348835714286 717.060465C44.0348835714286 717.060465 0 673.0372092857143 0 618.5255821428572L0 131.3976750000001C0 76.8976750000001 44.0348835714286 32.8744178571428 98.5348835714286 32.8744178571428L220.1279071428572 32.8744178571428L220.1279071428572 34.9674428571428zM576.5186035714286 620.6255821428572L450.7395357142857 620.6255821428572C438.1581392857143 620.6255821428572 429.7744178571429 612.2418607142857 429.7744178571429 599.6604642857143C429.7744178571429 587.0906964285714 438.1581392857143 578.7069749999999 450.7395357142857 578.7069749999999L576.5186035714286 578.7069749999999C589.1 578.7069749999999 597.4837214285715 587.0906964285714 597.4837214285715 599.6604642857143C597.4837214285715 612.2418607142857 589.1 620.6255821428572 576.5186035714286 620.6255821428572" />
    <glyph glyph-name="bar"
      unicode="&#xE009;"
      horiz-adv-x="1000" d="M1000 888.8888891666667L1000 1000L0 1000L0 888.8888891666667L444.4444441666667 388.8888891666667L444.4444441666667 111.1111083333334L166.6666666666667 111.1111083333334L166.6666666666667 0L833.3333333333333 0L833.3333333333333 111.1111083333334L555.5555558333333 111.1111083333334L555.5555558333333 388.8888891666667L1000 888.8888891666667zM246.1111108333334 777.7777775L147.7777775 888.8888891666667L852.7777749999999 888.8888891666667L753.8888891666667 777.7777775L246.1111108333334 777.7777775z" />
    <glyph glyph-name="bell"
      unicode="&#xE00A;"
      horiz-adv-x="950" d="M381.027778 92.5581400000001C381.027778 41.39535 423.0555555000001 0 475 0C526.944445 0 568.97222 41.39535 568.97222 92.5581400000001L381.027778 92.5581400000001zM475 790.6976745C605.333335 790.6976745 711.1111099999999 686.511628 711.1111099999999 558.139535L711.1111099999999 232.55814L238.888889 232.55814L238.888889 558.139535C238.888889 686.511628 344.6666665 790.6976745 475 790.6976745zM475 1000C435.8055555 1000 404.1666665 968.8372093 404.1666665 930.232558L404.1666665 875.8139535C255.888889 844.1860465 144.4444445 713.9534885 144.4444445 558.139535L144.4444445 279.0697650000001L50 186.0465100000001L50 139.5348849999999L900 139.5348849999999L900 186.0465100000001L805.5555550000001 279.0697650000001L805.5555550000001 558.139535C805.5555550000001 713.9534885 694.1111099999999 844.1860465 545.833335 875.8139535L545.833335 930.232558C545.833335 968.8372093 514.1944445 1000 475 1000z" />
    <glyph glyph-name="bike"
      unicode="&#xE00B;"
      horiz-adv-x="1142.857142857143" d="M738.0952357142858 809.5238092857143C790.4761928571429 809.5238092857143 833.3333357142858 852.3809521428572 833.3333357142858 904.761905C833.3333357142858 957.1428571428572 790.4761928571429 1000 738.0952357142858 1000C685.7142857142857 1000 642.8571428571429 957.1428571428572 642.8571428571429 904.761905C642.8571428571429 852.3809521428572 685.7142857142857 809.5238092857143 738.0952357142858 809.5238092857143zM238.0952378571429 500C104.761905 500 0 395.238095 0 261.9047642857143C0 128.5714285714286 104.761905 23.8095214285714 238.0952378571429 23.8095214285714C371.4285714285715 23.8095214285714 476.1904764285714 128.5714285714286 476.1904764285714 261.9047642857143C476.1904764285714 395.238095 371.4285714285715 500 238.0952378571429 500zM238.0952378571429 95.2380928571428C147.6190478571429 95.2380928571428 71.4285714285714 171.4285714285715 71.4285714285714 261.9047642857143C71.4285714285714 352.3809521428572 147.6190478571429 428.5714285714286 238.0952378571429 428.5714285714286C328.5714285714286 428.5714285714286 404.761905 352.3809521428572 404.761905 261.9047642857143C404.761905 171.4285714285715 328.5714285714286 95.2380928571428 238.0952378571429 95.2380928571428zM514.2857142857143 571.4285714285714L628.5714285714287 685.7142857142857L666.6666664285715 647.6190478571428C728.5714285714286 585.7142857142858 809.5238071428571 547.6190478571428 909.5238071428572 547.6190478571428L909.5238071428572 642.8571428571429C838.0952357142858 642.8571428571429 780.9523785714285 671.4285714285714 738.0952357142858 714.2857142857142L647.6190478571428 804.7619050000001C623.8095235714286 823.8095235714286 600 833.3333335714285 571.4285714285714 833.3333335714285C542.8571428571429 833.3333335714285 519.0476192857143 823.8095235714286 504.761905 804.7619050000001L371.4285714285715 671.4285714285714C352.3809521428572 652.3809521428572 342.8571428571429 628.5714285714286 342.8571428571429 604.7619050000001C342.8571428571429 576.1904764285714 352.3809521428572 552.380952142857 371.4285714285715 538.0952378571428L523.8095235714286 404.761905L523.8095235714286 166.6666642857142L619.0476192857143 166.6666642857142L619.0476192857143 461.9047621428572L514.2857142857143 571.4285714285714zM904.7619071428572 500C771.4285714285714 500 666.6666664285715 395.238095 666.6666664285715 261.9047642857143C666.6666664285715 128.5714285714286 771.4285714285714 23.8095214285714 904.7619071428572 23.8095214285714C1038.0952357142858 23.8095214285714 1142.857142857143 128.5714285714286 1142.857142857143 261.9047642857143C1142.857142857143 395.238095 1038.0952357142858 500 904.7619071428572 500zM904.7619071428572 95.2380928571428C814.2857142857143 95.2380928571428 738.0952357142858 171.4285714285715 738.0952357142858 261.9047642857143C738.0952357142858 352.3809521428572 814.2857142857143 428.5714285714286 904.7619071428572 428.5714285714286C995.2380928571428 428.5714285714286 1071.4285714285716 352.3809521428572 1071.4285714285716 261.9047642857143C1071.4285714285716 171.4285714285715 995.2380928571428 95.2380928571428 904.7619071428572 95.2380928571428z" />
    <glyph glyph-name="boat-filled"
      unicode="&#xE00C;"
      horiz-adv-x="909.090909090909" d="M500 909.0909090909092L500 863.6363636363636L409.0909090909091 863.6363636363636L409.0909090909091 909.0909090909092L500 909.0909090909092M590.9090909090909 1000L318.1818181818182 1000L318.1818181818182 863.6363636363636L181.8181818181818 863.6363636363636C131.8181818181819 863.6363636363636 90.9090909090909 822.7272727272727 90.9090909090909 772.7272727272727L90.9090909090909 562.7272727272727L32.2727272727273 543.6363636363637C20.4545454545455 540 10.4545454545455 531.8181818181818 5 520.909090909091C-0.4545454545455 510.0000000000001 -1.8181818181818 497.2727272727273 2.2727272727273 485.4545454545455L88.6363636363636 181.8181818181819L90.9090909090909 181.8181818181819C163.6363636363636 181.8181818181819 228.1818181818182 221.8181818181818 272.7272727272728 272.7272727272728C317.2727272727273 221.8181818181818 381.8181818181818 181.8181818181819 454.5454545454545 181.8181818181819C527.2727272727273 181.8181818181819 591.8181818181818 221.8181818181818 636.3636363636364 272.7272727272728C680.9090909090909 221.8181818181818 745.4545454545454 181.8181818181819 818.1818181818181 181.8181818181819L820.4545454545455 181.8181818181819L906.3636363636364 485.4545454545455C910 497.2727272727273 909.090909090909 510.0000000000001 903.6363636363636 520.909090909091C898.1818181818182 531.8181818181818 888.1818181818181 540 876.3636363636364 543.6363636363637L818.1818181818181 562.7272727272727L818.1818181818181 772.7272727272727C818.1818181818181 822.7272727272727 777.2727272727274 863.6363636363636 727.2727272727273 863.6363636363636L590.9090909090909 863.6363636363636L590.9090909090909 1000zM181.8181818181818 592.2727272727273L181.8181818181818 772.7272727272727L727.2727272727273 772.7272727272727L727.2727272727273 592.2727272727273L454.5454545454545 681.8181818181818L181.8181818181818 592.2727272727273zM636.3636363636364 150.909090909091C580.9090909090909 112.2727272727273 517.7272727272727 92.7272727272728 454.5454545454545 92.7272727272728C391.3636363636363 92.7272727272728 328.1818181818182 112.2727272727273 272.7272727272728 150.909090909091C217.2727272727273 112.2727272727273 154.0909090909091 90.909090909091 90.9090909090909 90.909090909091L0 90.909090909091L0 0L90.9090909090909 0C153.6363636363636 0 215.4545454545455 15.909090909091 272.7272727272728 45C330 15.909090909091 392.2727272727273 0.9090909090909 454.5454545454545 0.9090909090909C516.8181818181818 0.9090909090909 579.0909090909091 15.4545454545455 636.3636363636364 45C693.6363636363637 15.4545454545455 755.4545454545455 0 818.1818181818181 0L909.090909090909 0L909.090909090909 90.909090909091L818.1818181818181 90.909090909091C755 90.909090909091 691.8181818181818 112.2727272727273 636.3636363636364 150.909090909091z" />
    <glyph glyph-name="boat"
      unicode="&#xE00D;"
      horiz-adv-x="909.090909090909" d="M500 909.0909090909092L500 863.6363636363636L409.0909090909091 863.6363636363636L409.0909090909091 909.0909090909092L500 909.0909090909092M454.5454545454545 585.909090909091L699.090909090909 505.4545454545454L807.7272727272726 470L756.8181818181818 289.5454545454546C732.2727272727273 303.1818181818183 714.0909090909091 321.8181818181819 705 332.2727272727274L636.3636363636364 410.9090909090909L567.7272727272727 332.7272727272728C552.2727272727273 314.5454545454546 509.5454545454546 272.7272727272728 454.5454545454545 272.7272727272728C399.5454545454545 272.7272727272728 356.8181818181818 314.5454545454546 341.3636363636363 332.7272727272728L272.7272727272728 410.9090909090909L204.0909090909091 332.7272727272728C195 322.2727272727273 176.8181818181818 304.0909090909091 152.2727272727273 290.4545454545455L100.9090909090909 470.4545454545455L210 506.3636363636364L454.5454545454545 585.909090909091M590.9090909090909 1000L318.1818181818182 1000L318.1818181818182 863.6363636363636L181.8181818181818 863.6363636363636C131.8181818181819 863.6363636363636 90.9090909090909 822.7272727272727 90.9090909090909 772.7272727272727L90.9090909090909 562.7272727272727L32.2727272727273 543.6363636363637C20.4545454545455 540 10.4545454545455 531.8181818181818 5 520.909090909091C-0.4545454545455 510.0000000000001 -1.8181818181818 497.2727272727273 2.2727272727273 485.4545454545455L88.6363636363636 181.8181818181819L90.9090909090909 181.8181818181819C163.6363636363636 181.8181818181819 228.1818181818182 221.8181818181818 272.7272727272728 272.7272727272728C317.2727272727273 221.8181818181818 381.8181818181818 181.8181818181819 454.5454545454545 181.8181818181819C527.2727272727273 181.8181818181819 591.8181818181818 221.8181818181818 636.3636363636364 272.7272727272728C680.9090909090909 221.8181818181818 745.4545454545454 181.8181818181819 818.1818181818181 181.8181818181819L820.4545454545455 181.8181818181819L906.3636363636364 485.4545454545455C910 497.2727272727273 909.090909090909 510.0000000000001 903.6363636363636 520.909090909091C898.1818181818182 531.8181818181818 888.1818181818181 540 876.3636363636364 543.6363636363637L818.1818181818181 562.7272727272727L818.1818181818181 772.7272727272727C818.1818181818181 822.7272727272727 777.2727272727274 863.6363636363636 727.2727272727273 863.6363636363636L590.9090909090909 863.6363636363636L590.9090909090909 1000zM181.8181818181818 592.2727272727273L181.8181818181818 772.7272727272727L727.2727272727273 772.7272727272727L727.2727272727273 592.2727272727273L454.5454545454545 681.8181818181818L181.8181818181818 592.2727272727273zM636.3636363636364 150.909090909091C580.9090909090909 112.2727272727273 517.7272727272727 92.7272727272728 454.5454545454545 92.7272727272728C391.3636363636363 92.7272727272728 328.1818181818182 112.2727272727273 272.7272727272728 150.909090909091C217.2727272727273 112.2727272727273 154.0909090909091 90.909090909091 90.9090909090909 90.909090909091L0 90.909090909091L0 0L90.9090909090909 0C153.6363636363636 0 215.4545454545455 15.909090909091 272.7272727272728 45C330 15.909090909091 392.2727272727273 0.9090909090909 454.5454545454545 0.9090909090909C516.8181818181818 0.9090909090909 579.0909090909091 15.4545454545455 636.3636363636364 45C693.6363636363637 15.4545454545455 755.4545454545455 0 818.1818181818181 0L909.090909090909 0L909.090909090909 90.909090909091L818.1818181818181 90.909090909091C755 90.909090909091 691.8181818181818 112.2727272727273 636.3636363636364 150.909090909091z" />
    <glyph glyph-name="book"
      unicode="&#xE00E;"
      horiz-adv-x="1304.3478260869565" d="M971.0144913043478 1000C857.9710130434784 1000 736.2318826086957 976.8115943478261 652.1739130434783 913.0434782608696C568.1159434782609 976.8115943478261 446.3768130434783 1000 333.3333334782609 1000C220.2898552173913 1000 98.5507247826087 976.8115943478261 14.4927534782609 913.0434782608696L14.4927534782609 63.7681173913044C14.4927534782609 26.0869565217391 56.8115943478261 37.6811608695651 57.9710143478261 37.6811608695651C136.2318839130435 75.3623173913044 249.2753621739131 101.4492739130434 333.3333334782609 101.4492739130434C446.3768130434783 101.4492739130434 568.1159434782609 78.2608695652174 652.1739130434783 14.492752173913C730.4347826086957 63.7681173913044 872.4637695652174 101.4492739130434 971.0144913043478 101.4492739130434C1066.6666652173913 101.4492739130434 1165.217391304348 84.0579695652174 1246.3768130434783 40.5797086956522C1270.1449260869565 28.4057956521739 1289.8550739130435 51.594204347826 1289.8550739130435 66.6666652173913L1289.8550739130435 913.0434782608696C1203.4782608695652 977.971014347826 1079.420291304348 1000 971.0144913043478 1000zM1173.913043478261 188.4057956521739C1110.1449260869565 208.695652173913 1040.5797086956522 217.391304347826 971.0144913043478 217.391304347826C872.4637695652174 217.391304347826 730.4347826086957 179.7101434782609 652.1739130434783 130.4347826086956L652.1739130434783 797.101447826087C730.4347826086957 846.3768117391305 872.4637695652174 884.0579708695652 971.0144913043478 884.0579708695652C1040.5797086956522 884.0579708695652 1110.1449260869565 875.3623186956521 1173.913043478261 855.0724639130435L1173.913043478261 188.4057956521739z" />
    <glyph glyph-name="bus"
      unicode="&#xE00F;"
      horiz-adv-x="842.1052631578947" d="M0 263.1578947368421C0 216.8421052631579 20.5263157894737 175.2631578947367 52.6315789473684 146.3157894736842L52.6315789473684 52.6315789473683C52.6315789473684 23.6842105263157 76.3157894736842 0 105.2631578947368 0L157.8947368421053 0C186.8421052631579 0 210.5263157894737 23.6842105263157 210.5263157894737 52.6315789473683L210.5263157894737 105.2631578947368L631.578947368421 105.2631578947368L631.578947368421 52.6315789473683C631.578947368421 23.6842105263157 655.2631578947368 0 684.2105263157895 0L736.8421052631578 0C765.7894736842105 0 789.4736842105262 23.6842105263157 789.4736842105262 52.6315789473683L789.4736842105262 146.3157894736842C821.5789473684209 175.2631578947367 842.1052631578947 216.8421052631579 842.1052631578947 263.1578947368421L842.1052631578947 789.4736842105262C842.1052631578947 973.6842105263158 653.6842105263158 999.9999999999998 421.0526315789474 999.9999999999998C188.4210526315789 999.9999999999998 0 973.6842105263158 0 789.4736842105262L0 263.1578947368421zM184.2105263157895 210.5263157894737C140.5263157894737 210.5263157894737 105.2631578947368 245.7894736842105 105.2631578947368 289.4736842105263C105.2631578947368 333.1578947368421 140.5263157894737 368.4210526315789 184.2105263157895 368.4210526315789C227.8947368421053 368.4210526315789 263.1578947368421 333.1578947368421 263.1578947368421 289.4736842105263C263.1578947368421 245.7894736842105 227.8947368421053 210.5263157894737 184.2105263157895 210.5263157894737zM657.8947368421052 210.5263157894737C614.2105263157895 210.5263157894737 578.9473684210526 245.7894736842105 578.9473684210526 289.4736842105263C578.9473684210526 333.1578947368421 614.2105263157895 368.4210526315789 657.8947368421052 368.4210526315789C701.5789473684209 368.4210526315789 736.8421052631578 333.1578947368421 736.8421052631578 289.4736842105263C736.8421052631578 245.7894736842105 701.5789473684209 210.5263157894737 657.8947368421052 210.5263157894737zM736.8421052631578 526.3157894736842L105.2631578947368 526.3157894736842L105.2631578947368 789.4736842105262L736.8421052631578 789.4736842105262L736.8421052631578 526.3157894736842z" />
    <glyph glyph-name="cart"
      unicode="&#xE010;"
      horiz-adv-x="1000" d="M300 200C245.0000000000001 200 200.5 155.0000000000001 200.5 100C200.5 44.9999999999999 245.0000000000001 0 300 0C355 0 400 44.9999999999999 400 100C400 155.0000000000001 355 200 300 200zM0 1000L0 900L100 900L280 520.5L212.5 398C204.5 384 200 367.5 200 350C200 295 245.0000000000001 250 300 250L900 250L900 350L321 350C314 350 308.5 355.5 308.5 362.5L310 368.5L355 450L727.5 450C765 450 798 470.5 815 501.4999999999999L994 826C998 833 1000 841.5 1000 850C1000 877.5 977.5 900 950 900L210.5 900L163.5 1000L0 1000zM800 200C745 200 700.5 155.0000000000001 700.5 100C700.5 44.9999999999999 745 0 800 0C855.0000000000001 0 900 44.9999999999999 900 100C900 155.0000000000001 855.0000000000001 200 800 200z" />
    <glyph glyph-name="check-circle-filled"
      unicode="&#xE011;"
      horiz-adv-x="1000" d="M504.7619047619048 1013.7844611528822C228.5119047619048 1013.7844611528822 4.7619047619048 778.2581453634085 4.7619047619048 487.468671679198C4.7619047619048 196.9423558897243 228.5119047619048 -38.8471177944864 504.7619047619048 -38.8471177944864C780.7619047619048 -38.8471177944864 1004.7619047619048 196.9423558897243 1004.7619047619048 487.468671679198C1004.7619047619048 778.2581453634085 780.7619047619048 1013.7844611528822 504.7619047619048 1013.7844611528822zM404.7619047619049 224.3107769423558L154.7619047619048 487.468671679198L225.5119047619048 561.9423558897242L404.7619047619048 373.2581453634084L784.0119047619048 772.468671679198L854.7619047619047 697.9949874686716L404.7619047619048 224.3107769423558z" />
    <glyph glyph-name="check-circle"
      unicode="&#xE012;"
      horiz-adv-x="1000" d="M718.5714285714287 710.4761907142856L404.761905 396.6666664285714L233.8095235714286 567.1428571428571L166.6666664285714 500L404.761905 261.9047642857143L785.7142857142858 642.8571428571429L718.5714285714287 710.4761907142856zM500 976.1904762142856C237.1428571428572 976.1904762142856 23.8095237857143 762.8571428571429 23.8095237857143 500C23.8095237857143 237.1428571428571 237.1428571428572 23.8095214285714 500 23.8095214285714C762.8571428571429 23.8095214285714 976.1904785714286 237.1428571428571 976.1904785714286 500C976.1904785714286 762.8571428571429 762.8571428571429 976.1904762142856 500 976.1904762142856zM500 119.0476214285715C289.5238092857143 119.0476214285715 119.0476192857143 289.5238092857142 119.0476192857143 500C119.0476192857143 710.4761907142856 289.5238092857143 880.9523807142857 500 880.9523807142857C710.4761907142858 880.9523807142857 880.9523785714285 710.4761907142856 880.9523785714285 500C880.9523785714285 289.5238092857142 710.4761907142858 119.0476214285715 500 119.0476214285715z" />
    <glyph glyph-name="check"
      unicode="&#xE013;"
      horiz-adv-x="1352.941176470588" d="M426.4705882352941 222.7941176470589L119.8529411764706 529.4117647058824L15.4411764705882 425.7352941176472L426.4705882352941 14.7058823529412L1308.8235294117646 897.0588235294117L1205.1470588235295 1000.735294117647z" />
    <glyph glyph-name="checkbox-checked"
      unicode="&#xE014;"
      horiz-adv-x="1000" d="M870.875 786.9375L802.6249999999999 855.09375C795.5781249999999 862.140625 786.3125 865.671875 777.0624999999999 865.671875C767.8124999999999 865.671875 758.5624999999999 862.15625 751.5156249999999 855.109375L696.9218749999999 800.671875L816.28125 681.515625L870.875 735.9375C884.984375 750.03125 884.984375 772.890625 870.875 786.9375zM342.53125 446.9375L461.90625 327.765625L790.734375 655.984375L671.359375 775.15625zM316.765625 421.4375L291.28125 276.875L436.140625 302.28125zM646.765625 212.453125H196.671875V662.546875H514.3125L592.5937499999999 740.671875H169.0625C141.265625 740.671875 118.53125 717.9375 118.53125 690.140625V184.84375C118.53125 157.046875 141.265625 134.3125 169.0625 134.3125H674.359375C702.15625 134.3125 724.890625 157.0468749999999 724.890625 184.84375V546.109375L646.765625 468.125V212.453125z" />
    <glyph glyph-name="checkbox-unchecked"
      unicode="&#xE015;"
      horiz-adv-x="1000" d="M646.765625 212.453125L196.671875 212.453125L196.671875 662.546875L514.3125 662.546875L592.5937499999999 740.671875L169.0624999999999 740.671875C141.2656249999999 740.671875 118.5312499999999 717.9375 118.5312499999999 690.140625L118.5312499999999 184.8437500000001C118.5312499999999 157.046875 141.2656249999999 134.3125 169.0624999999999 134.3125L674.3593749999999 134.3125C702.1562499999998 134.3125 724.8906249999999 157.046875 724.8906249999999 184.8437500000001L724.8906249999999 546.109375L646.7656249999999 468.1250000000001L646.7656249999999 212.4531250000001zM646.765625 212.453125L196.671875 212.453125L196.671875 662.546875L514.3125 662.546875L592.5937499999999 740.671875L169.0624999999999 740.671875C141.2656249999999 740.671875 118.5312499999999 717.9375 118.5312499999999 690.140625L118.5312499999999 184.8437500000001C118.5312499999999 157.046875 141.2656249999999 134.3125 169.0624999999999 134.3125L674.3593749999999 134.3125C702.1562499999998 134.3125 724.8906249999999 157.046875 724.8906249999999 184.8437500000001L724.8906249999999 546.109375L646.7656249999999 468.1250000000001L646.7656249999999 212.4531250000001zM196.6715435981751 212.4372807655334L196.6715435981751 662.5310307655334L646.765293598175 662.5310307655334L646.765293598175 344.8904057655333L724.890293598175 266.6091557655334L724.890293598175 690.1404057655334C724.890293598175 717.9372807655334 702.155918598175 740.6716557655334 674.359043598175 740.6716557655334L169.062168598175 740.6716557655334C141.265293598175 740.6716557655334 118.530918598175 717.9372807655334 118.530918598175 690.1404057655334L118.5309185981751 184.8435307655334C118.5309185981751 157.0466557655335 141.2652935981751 134.3122807655334 169.0621685981751 134.3122807655334L530.327793598175 134.3122807655334L452.343418598175 212.4372807655334L196.6715435981751 212.4372807655334z" />
    <glyph glyph-name="chevron-filled-right"
      unicode="&#xE016;"
      horiz-adv-x="928.5714285714286" d="M839.1111428571431 590.0509214285715L153.0793571428575 986.304892857143C104.2857142857149 1014.4953714285716 41.8729999999995 997.765207142857 13.6825714285708 948.9715571428573C4.7301428571436 933.416007142857 0 915.8287 0 897.86045L0 105.3525142857143C-0.0317142857134 49.0033071428572 45.6190714285713 3.2890214285715 101.9682857142864 3.2572714285714C119.9365000000004 3.2572714285714 137.5238571428566 7.9556857142857 153.0793571428575 16.9080642857143L839.1111428571431 413.1937785714284C887.9682857142858 441.2890214285714 904.761928571428 503.6699714285714 876.6667142857148 552.5271142857143C867.6507857142855 568.1461642857143 854.730142857142 581.0668000000001 839.1111428571431 590.0509214285715" />
    <glyph glyph-name="chevron-left"
      unicode="&#xE017;"
      horiz-adv-x="588.2352941176471" d="M549.0196470588236 141.5418823529404L209.6795941176471 501.5418823529404L549.0196470588236 861.5418823529403L444.5503294117647 972.130117647058L0.0000411764707 501.5418823529404L444.5503294117647 30.9536470588228z" />
    <glyph glyph-name="circle"
      unicode="&#xE018;"
      horiz-adv-x="1000" d="M500 1000C225 1000 0 775 0 500C0 225 225 0 500 0C775 0 1000 225 1000 500C1000 775 775 1000 500 1000L500 1000zM500 100C280 100 100 280 100 500C100 720 280 900 500 900C720 900 900 720 900 500C900 280 720 100 500 100L500 100z" />
    <glyph glyph-name="clock"
      unicode="&#xE019;"
      horiz-adv-x="1000" d="M499.5370372222223 962.9629629444444C243.9814816666667 962.9629629444444 37.0370370555556 755.5555555555555 37.0370370555556 500C37.0370370555556 244.4444444444445 243.9814816666667 37.0370388888889 499.5370372222223 37.0370388888889C755.5555555555555 37.0370388888889 962.962961111111 244.4444444444445 962.962961111111 500C962.962961111111 755.5555555555555 755.5555555555555 962.9629629444444 499.5370372222223 962.9629629444444zM500 129.6296277777777C295.3703705555556 129.6296277777777 129.6296294444445 295.3703722222223 129.6296294444445 500C129.6296294444445 704.6296294444444 295.3703705555556 870.3703705555556 500 870.3703705555556C704.6296277777777 870.3703705555556 870.3703722222223 704.6296294444444 870.3703722222223 500C870.3703722222223 295.3703722222223 704.6296277777777 129.6296277777777 500 129.6296277777777zM523.1481483333333 731.4814816666667L453.7037038888889 731.4814816666667L453.7037038888889 453.7037038888889L696.7592611111112 307.8703722222223L731.4814833333334 364.8148166666668L523.1481483333333 488.4259261111111z" />
    <glyph glyph-name="close-circle-filled"
      unicode="&#xE01A;"
      horiz-adv-x="1000" d="M500 1000C223.875 1000 0 776.125 0 500S223.875 0 500 0S1000 223.875 1000 500S776.125 1000 500 1000zM747.3125 341.0625L658.9375000000001 252.6875000000001L500 411.625L341.0625 252.6875L252.6875 341.0624999999999L411.625 500L252.6875 658.9375L341.0625 747.3125L500 588.375L658.9375 747.3125L747.3124999999999 658.9375L588.375 500L747.3125 341.0625z" />
    <glyph glyph-name="compare-arrows"
      unicode="&#xE01B;"
      horiz-adv-x="687.5" d="M438.125 312.5L0 312.5L0 187.5L438.125 187.5L438.125 0L687.5 250L438.125 500zM249.375 500L249.375 687.5L687.5 687.5L687.5 812.5L249.375 812.5L249.375 1000L0 750z" />
    <glyph glyph-name="credit-card"
      unicode="&#xE01C;"
      horiz-adv-x="1238.095238095238" d="M1114.2857142857142 1000C1183 1000 1238.095238095238 944.375 1238.095238095238 875L1238.095238095238 875L1238.095238095238 125C1238.095238095238 55.625 1183 0 1114.2857142857142 0L1114.2857142857142 0L123.8095238095238 0C55.0952380952381 0 0 55.625 0 125L0 125L0.6190476190476 875C0.6190476190476 944.375 55.0952380952381 1000 123.8095238095238 1000L123.8095238095238 1000zM1095.2380952380952 523.8095238095239L142.8571428571429 523.8095238095239L142.8571428571429 142.8571428571429L1095.2380952380952 142.8571428571429L1095.2380952380952 523.8095238095239zM1095.2380952380952 857.1428571428571L142.8571428571429 857.1428571428571L142.8571428571429 714.2857142857142L1095.2380952380952 714.2857142857142L1095.2380952380952 857.1428571428571z" />
    <glyph glyph-name="datepicker-grey"
      unicode="&#xE01D;"
      horiz-adv-x="909.090909090909" d="M818.1818181818181 909.0909090909092L772.7272727272727 909.0909090909092L772.7272727272727 1000L681.8181818181818 1000L681.8181818181818 909.0909090909092L227.2727272727273 909.0909090909092L227.2727272727273 1000L136.3636363636364 1000L136.3636363636364 909.0909090909092L90.9090909090909 909.0909090909092C40.9090909090909 909.0909090909092 0 868.1818181818182 0 818.1818181818182L0 90.909090909091C0 40.9090909090909 40.9090909090909 0 90.9090909090909 0L818.1818181818181 0C868.1818181818182 0 909.090909090909 40.9090909090909 909.090909090909 90.909090909091L909.090909090909 818.1818181818182C909.090909090909 868.1818181818182 868.1818181818182 909.0909090909092 818.1818181818181 909.0909090909092zM818.1818181818181 90.909090909091L90.9090909090909 90.909090909091L90.9090909090909 590.909090909091L818.1818181818181 590.909090909091L818.1818181818181 90.909090909091zM818.1818181818181 681.8181818181818L90.9090909090909 681.8181818181818L90.9090909090909 818.1818181818182L818.1818181818181 818.1818181818182L818.1818181818181 681.8181818181818z" />
    <glyph glyph-name="departures"
      unicode="&#xE01E;"
      horiz-adv-x="1000" d="M944.4047615384613 694.4285715384615L55.5595238461538 694.4285715384615L55.5595238461538 777.7857142307693C55.5595238461538 823.75 92.9404761538462 861.1428573076923 138.9047619230769 861.1428573076923L222.2619046153846 861.1428573076923L222.2619046153846 805.5833334615385L277.7619046153846 805.5833334615385L277.7619046153846 861.0833334615385L722.1904769230769 861.0833334615385L722.1904769230769 805.5357142307693L777.7499999999999 805.5357142307693L777.7499999999999 861.0833334615385L861.0952384615384 861.0833334615385C907.0119038461538 861.0833334615385 944.4047615384613 823.75 944.4047615384613 777.7857142307693L944.4047615384613 694.4285715384615zM944.4047615384613 138.9047615384616C944.4047615384613 92.9880961538462 907.0119038461538 55.5952384615385 861.0952384615384 55.5952384615385L138.9047619230769 55.5952384615385C92.9404761538462 55.5952384615385 55.5595238461538 92.9880961538462 55.5595238461538 138.9047615384616L55.5595238461538 638.8809523076923L944.4047615384613 638.8809523076923L944.4047615384613 138.9047615384616zM861.0952384615384 916.6428573076925L777.7499999999999 916.6428573076925L777.7499999999999 1000L722.1904769230769 1000L722.1904769230769 916.6428573076925L277.7619046153846 916.6428573076925L277.7619046153846 1000L222.2142857692308 1000L222.2142857692308 916.6428573076925L138.9047619230769 916.6428573076925C62.3214284615385 916.6428573076925 0 854.3333334615385 0 777.7380953846153L0 138.8571423076923C0 62.2619038461539 62.3214284615385 -0.059523076923 138.9047619230769 -0.059523076923L861.0952384615384 -0.059523076923C937.6904769230767 -0.059523076923 1000 62.2619038461539 1000 138.8571423076923L1000 638.8809523076923L1000 694.4285715384615L1000 777.7857142307693C999.9523807692308 854.3809523076923 937.6428576923076 916.6428573076925 861.0952384615384 916.6428573076925L861.0952384615384 916.6428573076925zM402.2845230769231 532.4L196.4630953846154 532.4C185.9035715384615 532.4 176.5226192307692 523.0190461538461 176.5226192307692 512.4595230769231C176.5226192307692 501.9 185.9035715384615 492.5190461538461 196.4630953846154 492.5190461538461L402.2845230769231 492.5190461538461C412.8440461538462 492.5190461538461 422.225 501.9 422.225 512.4595230769231C422.225 523.0190461538461 412.8440461538462 532.4 402.2845230769231 532.4M402.2845230769231 387.1011923076924L196.4630953846154 387.1011923076924C185.9035715384615 387.1011923076924 176.5226192307692 377.7202384615385 176.5226192307692 367.1607153846154C176.5226192307692 356.6011923076923 185.9035715384615 347.2202384615386 196.4630953846154 347.2202384615386L402.2845230769231 347.2202384615386C412.8440461538462 347.2202384615386 422.225 356.6011923076923 422.225 367.1607153846154C422.225 377.7202384615385 412.8440461538462 387.1011923076924 402.2845230769231 387.1011923076924M402.2845230769231 241.8142846153846L196.4630953846154 241.8142846153846C185.9035715384615 241.8142846153846 176.5226192307692 232.4214269230769 176.5226192307692 221.861903846154C176.5226192307692 211.3023807692308 185.9035715384615 201.921426923077 196.4630953846154 201.921426923077L402.2845230769231 201.921426923077C412.8440461538462 201.921426923077 422.225 211.3142846153846 422.225 221.861903846154C422.225 232.4214269230769 412.8440461538462 241.8142846153846 402.2845230769231 241.8142846153846M803.5476192307692 532.4L597.7261923076923 532.4C587.1666653846154 532.4 577.7857153846153 523.0190461538461 577.7857153846153 512.4595230769231C577.7857153846153 501.9 587.1666653846154 492.5190461538461 597.7261923076923 492.5190461538461L803.5476192307692 492.5190461538461C814.1071423076922 492.5190461538461 823.4880961538462 501.9 823.4880961538462 512.4595230769231C823.4880961538462 523.0190461538461 814.1071423076922 532.4 803.5476192307692 532.4M803.5476192307692 387.1011923076924L597.7261923076923 387.1011923076924C587.1666653846154 387.1011923076924 577.7857153846153 377.7202384615385 577.7857153846153 367.1607153846154C577.7857153846153 356.6011923076923 587.1666653846154 347.2202384615386 597.7261923076923 347.2202384615386L803.5476192307692 347.2202384615386C814.1071423076922 347.2202384615386 823.4880961538462 356.6011923076923 823.4880961538462 367.1607153846154C823.4880961538462 377.7202384615385 814.1071423076922 387.1011923076924 803.5476192307692 387.1011923076924M803.5476192307692 241.8142846153846L597.7261923076923 241.8142846153846C587.1666653846154 241.8142846153846 577.7857153846153 232.4214269230769 577.7857153846153 221.861903846154C577.7857153846153 211.3023807692308 587.1666653846154 201.921426923077 597.7261923076923 201.921426923077L803.5476192307692 201.921426923077C814.1071423076922 201.921426923077 823.4880961538462 211.3142846153846 823.4880961538462 221.861903846154C823.4880961538462 232.4214269230769 814.1071423076922 241.8142846153846 803.5476192307692 241.8142846153846" />
    <glyph glyph-name="diamond"
      unicode="&#xE01F;"
      horiz-adv-x="1200" d="M39.9792 682.9588L600.0432 81.6028L1160.0232 682.9588L947.4192 953.1748L252.5832 953.1748L39.9792 682.9588zM586.4232 42.9748L3.9192 671.8227999999999C-1.2408 678.1468 -1.3128 687.0748 3.7392 693.5188L230.2272 981.2908C233.5272 985.4908 238.6872 987.9988 244.0512 987.9988L955.9632 987.9988C961.3152 987.9988 966.4872 985.4908 969.7752 981.3028L1196.2392 693.5188C1201.3152 687.0748 1201.2432 678.1587999999999 1196.0711999999999 671.8108L613.6632 42.9868C610.3152 38.8707999999999 605.3472 36.5188000000001 600.0432 36.5188000000001C594.7272 36.5188000000001 589.7712 38.8707999999999 586.4232 42.9748zM29.796 665.3764000000001L1170.192 665.3764000000001L1170.192 700.2004L29.796 700.2004zM583.5168 48.1216000000001L231.6048 953.2336L264.6768 964.8856L600.0408 106.2855999999999L935.3568 964.8736L968.4168 953.2216L616.5888 48.1456000000001C614.1168 41.1976 607.4688 36.5175999999999 600.0408 36.5175999999999C592.6247999999999 36.5175999999999 585.9767999999999 41.1856 583.5168 48.1216000000001zM600.006 944.152L367.566 680.4639999999999L341.2380000000001 703.48L586.806 982.048C590.142 985.828 594.966 988 600.006 988C605.058 988 609.858 985.828 613.206 982.048L858.7860000000001 703.48L832.4580000000001 680.4639999999999L600.006 944.152z" />
    <glyph glyph-name="document"
      unicode="&#xE020;"
      horiz-adv-x="785.7142857142858" d="M107.1428571428571 976.1904761785714C54.7619046428571 976.1904761785714 12.3809523928571 933.3333332142857 12.3809523928571 880.9523810714286L11.9047618928571 119.0476178571428C11.9047618928571 66.6666678571428 54.2857142857143 23.809525 106.6666667857143 23.809525L678.5714285714286 23.809525C730.9523821428572 23.809525 773.809525 66.6666678571428 773.809525 119.0476178571428L773.809525 690.4761903571429L488.0952392857143 976.1904761785714L107.1428571428571 976.1904761785714zM440.4761892857143 642.8571428571429L440.4761892857143 904.7619046428572L702.3809535714286 642.8571428571429L440.4761892857143 642.8571428571429z" />
    <glyph glyph-name="documents"
      unicode="&#xE021;"
      horiz-adv-x="807.6923076923076" d="M87.2047057692308 999.9952941176153L87.2047057692308 962.4541176538462L740.7223538461539 962.4541176538462L740.7223538461539 86.101176923077L779.3576461538462 86.101176923077L779.3576461538462 999.9952941176153zM0 0L692.1529423076923 0L692.1529423076923 913.8941176923076L0 913.8941176923076L0 0zM37.5294117692308 37.5176461538462L654.6352923076923 37.5176461538462L654.6352923076923 876.3529411538461L37.5294117692308 876.3529411538461L37.5294117692308 37.5176461538462zM537.6082346153846 190.9058807692308L155.6552942307692 190.9058807692308C145.7141176923077 190.9058807692308 136.8788234615385 182.0705884615385 136.8788234615385 172.1294115384616C136.8788234615385 162.2117653846154 145.7141176923077 153.3764692307693 155.6552942307692 153.3764692307693L537.6082346153846 153.3764692307693C547.5494115384615 153.3764692307693 556.3729423076923 162.2117653846154 556.3729423076923 172.1294115384616C556.3729423076923 182.0705884615385 547.5494115384615 190.9058807692308 537.6082346153846 190.9058807692308M461.4364692307692 568.4447076923077C460.3305884615385 597.1388230769231 455.918823076923 624.7388234615385 449.2952923076923 651.2329411538461C472.4717653846154 657.8564707692308 493.4482346153846 666.6917646153846 513.3188230769231 676.6211765384614C514.4247076923077 676.6211765384614 514.4247076923077 677.7270588461538 515.5305884615385 677.7270588461538C538.7070576923077 646.8211765384615 553.06 609.2917653846155 555.2717653846154 568.4447076923077L461.4364692307692 568.4447076923077zM514.4247076923077 430.4564692307693C513.3188230769231 430.4564692307693 513.3188230769231 431.5623538461539 512.2129423076923 431.5623538461539C492.3423538461539 441.4917653846154 470.2717653846153 450.3270576923078 448.1894115384615 456.9388230769231C454.8129423076923 483.4447076923077 459.2364692307692 511.0447076923077 460.3305884615385 539.7388230769232L554.1658807692307 539.7388230769232C551.9541192307693 498.8917653846154 537.6129423076923 461.3623538461538 514.4247076923077 430.4564692307693L514.4247076923077 430.4564692307693zM399.6129423076923 352.0682346153847C400.7188230769231 353.1741192307693 400.7188230769231 354.28 401.8247076923077 355.3858807692308C417.2835307692308 377.4682346153847 430.5305884615385 402.8564692307692 440.46 430.4564692307693C459.2364692307692 424.9388230769231 476.8835307692307 418.3152923076923 494.5541192307692 409.48C495.66 409.48 495.66 408.3741192307692 496.7658807692308 408.3741192307692C469.1658807692307 381.88 437.1541192307692 362.0094115384616 399.6129423076923 352.0682346153847L399.6129423076923 352.0682346153847zM357.6717646153846 345.4564692307693L346.6247057692308 345.4564692307693L335.5894119230769 345.4564692307693C334.4835292307692 346.5623538461539 334.4835292307692 347.6564692307692 333.377646923077 347.6564692307692C311.2952942307693 371.9505884615386 293.6364707692308 402.8564692307692 281.4952942307692 435.9741192307693C302.4717646153846 440.3858807692308 324.5423530769231 442.5976461538462 346.6247057692308 442.5976461538462C368.7070588461539 442.5976461538462 390.7894115384616 440.3858807692308 411.7541192307692 435.9741192307693C399.6129423076923 401.7505884615386 381.9541176923077 371.9505884615386 359.8717646153846 347.6564692307692C358.7658823076923 347.6564692307692 358.7658823076923 346.5623538461539 357.6717646153846 345.4564692307693L357.6717646153846 345.4564692307693zM197.6011765384615 408.3858807692308C198.7070588461539 408.3858807692308 198.7070588461539 409.48 199.8129411538462 409.48C216.3658823076923 418.3152923076923 234.0247057692308 424.9388230769231 253.8952942307692 430.4564692307693C263.8364707692308 402.8564692307692 277.0835292307692 378.5623538461539 292.5423530769231 355.3976461538462C293.6364707692308 354.28 293.6364707692308 353.1741192307693 294.7423530769231 352.0682346153847C256.1070588461539 362.0094115384616 222.9894119230769 381.88 197.6011765384615 408.3858807692308L197.6011765384615 408.3858807692308zM177.7305880769231 430.4564692307693C154.5423530769231 461.3623538461538 140.1894119230769 498.8917653846154 137.9894119230769 539.7388230769232L231.8129411538462 539.7388230769232C232.9188234615385 511.0447076923077 237.3423530769231 483.4447076923077 243.9658823076923 456.9505884615385C220.7894119230769 450.3270576923078 199.8129411538462 441.4917653846154 179.9305880769231 431.5623538461539C179.9305880769231 431.5623538461539 178.8364707692308 430.4564692307693 177.7305880769231 430.4564692307693L177.7305880769231 430.4564692307693zM177.7305880769231 677.7270588461538C178.8364707692308 677.7270588461538 178.8364707692308 676.6211765384614 179.9305880769231 676.6211765384614C199.8129411538462 665.5858823076924 221.8952942307692 657.8564707692308 243.9658823076923 651.2329411538461C237.3423530769231 624.7388234615385 232.9188234615385 597.1388230769231 231.8129411538462 568.4447076923077L137.9894119230769 568.4447076923077C141.2952942307692 609.2917653846155 155.66 646.8211765384615 177.7305880769231 677.7270588461538L177.7305880769231 677.7270588461538zM293.6364707692308 756.1035292307693C292.5423530769231 754.9976469230769 292.5423530769231 753.9035292307692 291.4364707692308 752.7976469230769C275.9776469230769 730.7152942307692 262.7305880769231 705.3270588461538 252.8011765384615 677.7388234615385C234.0247057692308 683.2447057692308 216.3658823076923 689.8682353846154 198.7070588461539 698.7035292307692C197.6011765384615 698.7035292307692 197.6011765384615 699.8094119230769 196.4952942307692 699.8094119230769C222.9894119230769 727.409411923077 256.1070588461539 747.28 293.6364707692308 756.1035292307693L293.6364707692308 756.1035292307693zM335.5894119230769 762.7270588461538L346.6247057692308 762.7270588461538L357.6717646153846 762.7270588461538C358.7658823076923 761.6211765384616 358.7658823076923 760.5270588461539 359.8717646153846 760.5270588461539C381.9541176923077 736.2329411538462 399.6129423076923 705.3270588461538 411.7541192307692 672.2094119230769C390.7894115384616 667.797646923077 368.7070588461539 665.5858823076924 346.6247057692308 665.5858823076924C324.5423530769231 665.5858823076924 302.4717646153846 667.797646923077 281.4952942307692 672.2094119230769C293.6364707692308 706.4329411538462 311.2952942307693 736.2329411538462 333.377646923077 760.5270588461539C333.377646923077 761.6211765384616 334.4835292307692 761.6211765384616 335.5894119230769 762.7270588461538L335.5894119230769 762.7270588461538zM260.5305880769231 568.4447076923077C261.6364707692308 594.9388230769232 266.0482353846154 620.3270588461539 271.5541176923077 644.6094119230769C294.7423530769231 640.197646923077 320.1305880769231 636.8800000000001 345.5188234615385 636.8800000000001C370.9188234615385 636.8800000000001 396.3070576923077 639.0917646153846 419.4952923076923 644.6094119230769C426.1070576923077 620.3270588461539 430.5305884615385 594.9388230769232 430.5305884615385 568.4447076923077L260.5305880769231 568.4447076923077zM432.7423538461539 539.7388230769232L432.7423538461539 539.7388230769232C431.6364692307693 513.2447076923077 427.2129423076923 487.8564692307692 421.6952923076923 463.5623538461539C397.4129423076923 467.9858807692308 373.1188234615385 471.3035307692307 347.7305880769231 471.3035307692307C322.3423530769231 471.3035307692307 296.9541176923077 469.0917653846154 273.777646923077 463.5623538461539C267.1423530769231 487.8564692307692 263.8364707692308 513.2447076923077 262.7305880769231 539.7388230769232L432.7423538461539 539.7388230769232zM495.66 700.9152942307692C494.5541192307692 700.9152942307692 494.5541192307692 699.8094119230769 493.4482346153846 699.8094119230769C476.8835307692307 692.08 459.2364692307692 684.350588076923 439.3541192307693 678.8329411538461C429.4129423076923 706.4329411538462 416.1658807692308 730.7152942307692 400.7188230769231 753.9035292307692C399.6129423076923 754.9976469230769 399.6129423076923 756.1035292307693 398.5070576923077 757.2094119230769C437.1541192307692 746.1741176923077 469.1658807692307 727.409411923077 495.66 700.9152942307692L495.66 700.9152942307692zM346.6247057692308 792.5388234615385C215.26 792.5388234615385 108.1894119230769 685.4564707692308 108.1894119230769 554.0917653846154C108.1894119230769 422.7270576923078 215.26 315.6447076923077 346.6247057692308 315.6447076923077C477.9894115384615 315.6447076923077 585.0717653846153 422.7270576923078 585.0717653846153 554.0917653846154C585.0717653846153 685.4564707692308 477.9894115384615 792.5388234615385 346.6247057692308 792.5388234615385L346.6247057692308 792.5388234615385z" />
    <glyph glyph-name="email"
      unicode="&#xE022;"
      horiz-adv-x="1285.7142857142858" d="M1119.0476214285716 976.1904764285714L166.6666664285714 976.1904764285714C101.1904764285714 976.1904764285714 48.2142857142857 922.6190478571428 48.2142857142857 857.1428571428571L47.6190478571429 142.8571428571429C47.6190478571429 77.38095 101.1904764285714 23.8095214285714 166.6666664285714 23.8095214285714L1119.0476214285716 23.8095214285714C1184.523807142857 23.8095214285714 1238.0952357142858 77.38095 1238.0952357142858 142.8571428571429L1238.0952357142858 857.1428571428571C1238.0952357142858 922.6190478571428 1184.523807142857 976.1904764285714 1119.0476214285716 976.1904764285714zM1119.0476214285716 142.8571428571429L166.6666664285714 142.8571428571429L166.6666664285714 738.0952378571428L642.8571428571429 440.4761928571429L1119.0476214285716 738.0952378571428L1119.0476214285716 142.8571428571429zM642.8571428571429 559.5238092857144L166.6666664285714 857.1428571428571L1119.0476214285716 857.1428571428571L642.8571428571429 559.5238092857144z" />
    <glyph glyph-name="eye"
      unicode="&#xE023;"
      horiz-adv-x="1600" d="M800 1000C466.666667 1000 182 792.666667 66.6666667 500C182 207.3333329999999 466.666667 0 800 0C1133.33333 0 1418 207.3333329999999 1533.33333 500C1418 792.666667 1133.33333 1000 800 1000zM800 166.666667C616 166.666667 466.666667 316 466.666667 500C466.666667 684 616 833.333333 800 833.333333C984 833.333333 1133.33333 684 1133.33333 500C1133.33333 316 984 166.666667 800 166.666667zM800 700C689.333333 700 600 610.666667 600 500C600 389.3333330000001 689.333333 300 800 300C910.666667 300 1000 389.3333330000001 1000 500C1000 610.666667 910.666667 700 800 700z" />
    <glyph glyph-name="facebook"
      unicode="&#xE024;"
      horiz-adv-x="1000" d="M944.827585 1000L55.172415 1000C24.70153 1000 0 975.29847 0 944.827585L0 55.172415C0 24.7015299999999 24.70153 0 55.172415 0L534.48276 0L534.48276 386.7241399999999L404.3103450000001 386.7241399999999L404.3103450000001 538.1034500000001L534.48276 538.1034500000001L534.48276 649.4827600000001C534.48276 778.62069 613.448275 848.965515 728.62069 848.965515C767.432305 849.05016 806.221515 847.0934299999999 844.827585 843.1034500000001L844.827585 708.1034500000001L765.51724 708.1034500000001C702.75862 708.1034500000001 690.51724 678.448275 690.51724 634.6551699999999L690.51724 538.2758600000001L840.51724 538.2758600000001L821.034485 386.89655L689.65517 386.89655L689.65517 0L944.827585 0C975.29847 0 1000 24.7015299999999 1000 55.172415L1000 944.827585C1000 975.29847 975.29847 1000 944.827585 1000z" />
    <glyph glyph-name="forbidden"
      unicode="&#xE025;"
      horiz-adv-x="1000" d="M500 962.9629629444444C244.4444444444445 962.9629629444444 37.0370370555556 755.5555555555555 37.0370370555556 500C37.0370370555556 244.4444444444445 244.4444444444445 37.0370388888889 500 37.0370388888889C755.5555555555555 37.0370388888889 962.962961111111 244.4444444444445 962.962961111111 500C962.962961111111 755.5555555555555 755.5555555555555 962.9629629444444 500 962.9629629444444zM129.6296294444445 500C129.6296294444445 704.6296294444444 295.3703705555556 870.3703705555556 500 870.3703705555556C585.64815 870.3703705555556 664.35185 841.2037038888889 726.85185 792.1296294444444L207.8703705555556 273.14815C158.7962961111111 335.64815 129.6296294444445 414.35185 129.6296294444445 500zM500 129.6296277777777C414.3518516666667 129.6296277777777 335.6481483333333 158.7962944444445 273.1481483333333 207.8703722222222L792.1296277777778 726.8518516666667C841.2037055555555 664.3518516666667 870.3703722222223 585.6481483333333 870.3703722222223 500C870.3703722222223 295.3703722222223 704.6296277777777 129.6296277777777 500 129.6296277777777z" />
    <glyph glyph-name="guided-tours"
      unicode="&#xE026;"
      horiz-adv-x="1200" d="M909.8952 746.1712L906.8232 776.5672L892.4232000000001 930.3112L1136.6832 954.4312L1154.8272 769.2472L909.8952 746.1712zM930.9551999999998 439.4992C944.6472 438.5632 957.4032 432.2392 966.4272 421.9072C985.1832 401.2432 983.6472000000002 369.2872 962.9832 350.5192C962.0352 349.6551999999999 961.0392 348.8272000000001 960.0311999999998 348.0352000000001L829.4952000000001 369.3712000000001C823.7952 379.8592 821.1552 391.7272000000001 821.8872 403.6312000000001C821.8872 406.1632 821.8872 413.7712 822.8232 420.8392C823.7472 427.9072 822.8232 431.9032 822.8232 434.1712L828.9552000000001 520.3072C830.7792000000001 530.7112 839.8632 538.2712 850.4232000000001 538.176104L851.8872 538.176104C862.9631999999999 537.3592 871.6392000000001 528.3352 872.0232 517.2352000000001L868.4232 466.7031999999999C867.4272000000001 454.7392 876.3191999999999 444.2392 888.2832000000001 443.2432C888.3312 443.2432 888.3792 443.2432 888.4272 443.2312000000001L930.9551999999998 439.4992zM912.6912 78.4192000000001L773.3592 101.0992L809.4911999999999 327.7672L949.2192 304.9672L912.6912 78.4192000000001zM591.8832 89.4952000000001L553.2192 287.6272L553.2192 288.4312L586.6752 365.7712L586.6752 366.4312C650.5632 363.9952000000001 711.6912000000001 339.8752000000001 760.0272 298.0312000000002L727.8912 89.3632L592.5552 89.3632L591.8832 89.4952000000001zM357.6192000000001 89.4952000000001L392.0232 264.2992L513.4872 264.2992L547.3512000000001 89.3632L357.6192000000001 89.4952000000001zM312.4152000000001 89.4952000000001L44.0112 89.4952000000001C54.5472 240.1672000000001 172.5552 359.9032 318.4152 366.9592L351.4872 288.6951999999999L312.8112 90.1672000000001L312.4152000000001 89.4952000000001zM539.0952 361.9072L539.0952 360.4312L517.8792 308.1712L388.4112 308.1712L367.7472 359.2312L367.7472 360.8392L367.7472 362.3032C387.9792 356.0272 408.9792 352.5712 430.1472 352.0312L472.4232 352.0312C495.0912 352.5472000000001 517.5552 356.4232 539.0952 363.4912C539.0952 363.4912 539.4912 363.3712000000001 539.0952 361.9072L539.0952 361.9072zM242.5512 591.7672L242.5512 660.9712C244.9752000000001 661.4752 247.4232 661.8352 249.8832 662.0391999999999C304.1592 664.2832 358.1352 671.5072 411.0912 683.6392000000001C464.5752 694.5832 515.2632 716.3632 560.0232 747.6351999999999C578.6472 722.1351999999999 602.0712000000001 700.4872 628.9512 683.9152L635.3472 680.3032000000001C643.4592 675.7072000000001 651.8711999999999 671.6872000000001 660.5592 668.3032000000001L660.5592 590.6992C660.5592 484.0312 576.8112 395.4952000000001 472.0152 395.4952000000001L429.4872000000001 395.4952000000001C324.6792 395.6392000000001 242.5512 485.0992 242.5512 590.6992L242.5512 591.7672zM242.5512 731.7711999999999C240.9312 834.3471999999999 322.7592 918.8032 425.3232 920.4232C426.6312 920.4352 427.9152 920.4472 429.2112 920.4352L471.4872 920.4352C574.5792 921.6952 659.1552 839.1472 660.4152 736.0672C660.4392 734.6272 660.4392 733.1992 660.4152 731.7711999999999L660.4152 716.1712L655.4832 718.8472C635.0952 730.6192 617.0112 746.0272 602.1432 764.3152C594.9552 772.9911999999999 588.3552 782.1712 582.4152 791.7712C579.0192 797.3392 573.2832 801.0472 566.8152 801.9112C565.3152 802.0672 563.7912 802.0672 562.2792 801.9112C557.2752 801.5032 552.5712 799.3912 548.9592 795.9112C520.1472 768.0352 476.5512 747.7792 427.6272 733.6432C395.1432 724.4272000000001 362.0352 717.6592 328.5552 713.3752C299.9712 709.5712 271.2192 707.2192 242.4192 706.3072L242.5512 731.7711999999999zM1177.6392 980.3152C1176.4992 992.2312 1165.9512 1000.9912 1154.0352 999.9112L866.6831999999999 971.3752C860.9952 970.7992 855.7511999999999 967.9552 852.1512 963.5032C848.5151999999999 959.0152 846.7872 953.2672 847.3512 947.5072L869.6232 718.0312L883.8912 571.3792000000001C875.1792 576.8152 865.3152 580.1032 855.0912 580.9672C820.0632 583.4512 789.4032 557.6392 785.8871999999999 522.7072L779.7552000000001 436.5712C779.7552000000001 434.8432 779.7552000000001 429.0952 779.0952 423.2392C778.4232 417.3712 779.0952 409.9072 778.2912 407.0992C777.5232 395.5312 778.6392 383.9152000000001 781.6271999999999 372.7072L779.2152 371.2312C774.5592 367.8112 771.4391999999999 362.6872000000001 770.5632 356.9632000000001L769.0872 347.7711999999999C725.0472000000001 380.2432 673.4832 401.0272 619.2192 408.1672C673.3272 453.4552 704.4191999999999 520.5352 704.0232000000001 591.1072L704.0232000000001 731.7711999999999C705.1392 859.0912 602.8152 963.2032 475.4952 964.3072C474.2952 964.3192 473.0952 964.3192 471.8832 964.3072L429.4872000000001 964.3072C302.8992 964.8472 199.8552 862.6552 199.3272 736.0672C199.3152 734.6392000000001 199.3272 733.1992 199.3512 731.7711999999999L199.3512 590.6992C198.7032 520.3432 229.5792 453.3952 283.4832 408.1672L282.8112 407.4952C122.9472 382.8352 0.00856368728 239.7712 0.00856368728 67.4872C-0.3528 55.4992 9.0792 45.4671999999999 21.0672 45.1072C21.2472 45.0952 21.4272 45.0952 21.6192 45.0952L842.2872 45.0952L927.8952 31.7632000000001L931.3512 31.7632000000001C942.0192 31.8352 951.0552 39.6232 952.6872 50.1591999999999L995.7552 320.4232000000001L995.7552 322.5592000000001C1032.0552 360.2031999999999 1030.9632000000001 420.1312000000001 993.3192 456.4192C977.7552 471.4192 957.5472 480.6472 936.0312 482.5672L914.9592 700.4272L1180.5672 727.1032C1186.2552 727.7032 1191.4872 730.5232000000001 1195.0991999999999 734.9632C1198.7352 739.4632 1200.4632 745.2112 1199.8992 750.9712L1177.6392 980.3152z" />
    <glyph glyph-name="hours"
      unicode="&#xE027;"
      horiz-adv-x="1000" d="M499.5370372222223 962.9629629444444C243.9814816666667 962.9629629444444 37.0370370555556 755.5555555555555 37.0370370555556 500C37.0370370555556 244.4444444444445 243.9814816666667 37.0370388888889 499.5370372222223 37.0370388888889C755.5555555555555 37.0370388888889 962.962961111111 244.4444444444445 962.962961111111 500C962.962961111111 755.5555555555555 755.5555555555555 962.9629629444444 499.5370372222223 962.9629629444444zM500 129.6296277777777C295.3703705555556 129.6296277777777 129.6296294444445 295.3703722222223 129.6296294444445 500C129.6296294444445 704.6296294444444 295.3703705555556 870.3703705555556 500 870.3703705555556C704.6296277777777 870.3703705555556 870.3703722222223 704.6296294444444 870.3703722222223 500C870.3703722222223 295.3703722222223 704.6296277777777 129.6296277777777 500 129.6296277777777zM523.1481483333333 731.4814816666667L453.7037038888889 731.4814816666667L453.7037038888889 453.7037038888889L696.7592611111112 307.8703722222223L731.4814833333334 364.8148166666668L523.1481483333333 488.4259261111111z" />
    <glyph glyph-name="info"
      unicode="&#xE028;"
      horiz-adv-x="1000" d="M500 916.6666666666666C269.7916666666667 916.6666666666666 83.3333333333333 730.2083333333334 83.3333333333333 500S269.7916666666667 83.3333333333334 500 83.3333333333334S916.6666666666666 269.7916666666668 916.6666666666666 500S730.2083333333333 916.6666666666666 500 916.6666666666666zM541.6666666666666 291.6666666666668H458.3333333333333V541.6666666666667H541.6666666666666V291.6666666666668zM541.6666666666666 625H458.3333333333333V708.3333333333334H541.6666666666666V625z" />
    <glyph glyph-name="instagram"
      unicode="&#xE029;"
      horiz-adv-x="1000" d="M499.8422636363636 999.6980503795454C364.094245909091 999.6980503795454 347.0704363636364 999.1476708090908 293.7589286363637 996.8208937181818C240.5545636363636 994.4998102272727 204.22123 986.4168219545454 172.4255954545455 974.5969461818182C139.5585318181818 962.3804175454546 111.6815477272727 946.0322463636364 83.8938490909091 919.4527086363636C56.1041668181818 892.8712731818182 39.0148809545455 866.20823 26.2410714090909 834.7701690909091C13.8839285909091 804.3569531818182 5.4355158636364 769.60333 3.0069444454545 718.7121981818182C0.5744047636364 667.7166840909091 0.0009920634818 651.4368359090909 0.0009920634818 521.589009090909C0.0009920634818 391.7411818181819 0.5744047636364 375.4594363636363 3.0069444454545 324.4639227272728C5.4355158636364 273.5746909090909 13.8839285909091 238.8191681818182 26.2410714090909 208.4078500000001C39.0148809545455 176.969790909091 56.1041668181818 150.30485 83.8938490909091 123.7253090909092C111.6815477272727 97.1438772727273 139.5585318181818 80.7976000000001 172.4255954545455 68.5772772727272C204.22123 56.7593000000001 240.5545636363636 48.6763090909091 293.7589286363637 46.3533318181819C347.0704363636364 44.02845 364.094245909091 43.4780727272728 499.8422636363636 43.4780727272728C635.5922636363637 43.4780727272728 652.6121045454546 44.02845 705.9255954545455 46.3533318181819C759.129959090909 48.6763090909091 795.4632954545455 56.7593000000001 827.2589272727273 68.5772772727272C860.1279772727272 80.7976000000001 888.0029772727272 97.1438772727273 915.7906727272727 123.7253090909092C943.580359090909 150.30485 960.669640909091 176.9678909090909 973.4434545454544 208.4078500000001C985.8005954545454 238.8191681818182 994.2509909090908 273.5746909090909 996.6775772727271 324.4639227272728C999.1101181818182 375.4594363636363 999.6855136363636 391.7411818181819 999.6855136363636 521.589009090909C999.6855136363636 651.4349377272727 999.1101181818182 667.7166840909091 996.6775772727271 718.7121981818182C994.2509909090908 769.60333 985.8005954545454 804.3569531818182 973.4434545454544 834.7701690909091C960.669640909091 866.20823 943.580359090909 892.8712731818182 915.7906727272727 919.4527086363636C888.0029772727272 946.0322463636364 860.1279772727272 962.3804175454546 827.2589272727273 974.5969461818182C795.4632954545455 986.4168219545454 759.129959090909 994.4998102272727 705.9255954545455 996.8208937181818C652.6121045454546 999.1476708090908 635.5922636363637 999.6980503795454 499.8422636363636 999.6980503795454M499.8422636363636 913.55226C633.3065454545455 913.55226 649.1140863636364 913.0664077272726 701.8204363636363 910.766200909091C750.5545636363637 908.638699090909 777.0208318181818 900.849879090909 794.6339272727273 894.30226C817.9652772727272 885.6290372727273 834.6180545454545 875.2686163636364 852.1081363636364 858.5389749999999C869.5982136363635 841.8074363636364 880.4295636363637 825.88059 889.4990090909091 803.5636472727273C896.3422636363637 786.7163386363636 904.4851181818182 761.4007763636364 906.7093272727274 714.7855245454546C909.1121045454544 664.3707559090909 909.6220227272728 649.2486022727273 909.6220227272728 521.589009090909C909.6220227272728 393.9275181818182 909.1121045454544 378.8053636363636 906.7093272727274 328.3924954545455C904.4851181818182 281.7753454545455 896.3422636363637 256.4597818181818 889.4990090909091 239.6124727272727C880.4295636363637 217.2974272727273 869.5982136363635 201.3686863636365 852.1081363636364 184.6390454545456C834.6180545454545 167.9075045454546 817.9652772727272 157.5470863636365 794.6339272727273 148.8738590909092C777.0208318181818 142.3281409090909 750.5545636363637 134.5374227272728 701.8204363636363 132.4118181818183C649.1220227272727 130.1116136363636 633.3164681818182 129.6238590909092 499.8422636363636 129.6238590909092C366.3680554545454 129.6238590909092 350.5625 130.1116136363636 297.8640872727273 132.4118181818183C249.1299604545455 134.5374227272728 222.6617063636364 142.3281409090909 205.0486109090909 148.8738590909092C181.7192459090909 157.5470863636365 165.0664681818182 167.9075045454546 147.5763890909091 184.6390454545456C130.0863095454546 201.3686863636365 119.2529763636364 217.2974272727273 110.1855159090909 239.6124727272727C103.3422618181818 256.4597818181818 95.1994045454545 281.7753454545455 92.9751986363636 328.3905954545455C90.5704363636364 378.8053636363636 90.0625 393.9275181818182 90.0625 521.589009090909C90.0625 649.2486022727273 90.5704363636364 664.3707559090909 92.9751986363636 714.7855245454546C95.1994045454545 761.4007763636364 103.3422618181818 786.7163386363636 110.1855159090909 803.5636472727273C119.2529763636364 825.88059 130.0863095454546 841.8074363636364 147.5763890909091 858.5370772727273C165.0664681818182 875.2686163636364 181.7192459090909 885.6290372727273 205.0486109090909 894.30226C222.6617063636364 900.849879090909 249.1299604545455 908.638699090909 297.8621031818182 910.766200909091C350.5704363636364 913.0664077272726 366.3779763636363 913.55226 499.8422636363636 913.55226M499.8422636363636 362.2180636363637C407.8244045454546 362.2180636363637 333.2271827272727 433.5719272727273 333.2271827272727 521.589009090909C333.2271827272727 609.6060904545454 407.8244045454546 680.9580572727273 499.8422636363636 680.9580572727273C591.8601181818182 680.9580572727273 666.4573409090909 609.6060904545454 666.4573409090909 521.589009090909C666.4573409090909 433.5719272727273 591.8601181818182 362.2180636363637 499.8422636363636 362.2180636363637M499.8422636363636 767.1038472727273C358.0843254545455 767.1038472727273 243.1656745454545 657.1835577272727 243.1656745454545 521.589009090909C243.1656745454545 385.9925636363637 358.0843254545455 276.0722727272728 499.8422636363636 276.0722727272728C641.6002 276.0722727272728 756.5168636363635 385.9925636363637 756.5168636363635 521.589009090909C756.5168636363635 657.1835577272727 641.6002 767.1038472727273 499.8422636363636 767.1038472727273M826.6400772727272 776.8041927272727C826.6400772727272 745.1175122727273 799.7869045454545 719.4318668181818 766.6599227272727 719.4318668181818C733.5329363636363 719.4318668181818 706.6777772727273 745.1175122727273 706.6777772727273 776.8041927272727C706.6777772727273 808.4908731818182 733.5329363636363 834.1765181818182 766.6599227272727 834.1765181818182C799.7869045454545 834.1765181818182 826.6400772727272 808.4908731818182 826.6400772727272 776.8041927272727" />
    <glyph glyph-name="location-fill"
      unicode="&#xE02A;"
      horiz-adv-x="666.6666666666667" d="M333.3333333333334 962.9629627777778C154.1666666666667 962.9629627777778 9.2592594444444 818.0555555555555 9.2592594444444 638.8888888888889C9.2592594444444 395.8333333333334 333.3333333333334 37.0370388888889 333.3333333333334 37.0370388888889C333.3333333333334 37.0370388888889 657.4074055555556 395.8333333333334 657.4074055555556 638.8888888888889C657.4074055555556 818.0555555555555 512.5 962.9629627777778 333.3333333333334 962.9629627777778zM333.3333333333334 523.1481483333333C269.4444444444445 523.1481483333333 217.5925927777778 575 217.5925927777778 638.8888888888889C217.5925927777778 702.7777777777778 269.4444444444445 754.6296294444444 333.3333333333334 754.6296294444444C397.2222222222223 754.6296294444444 449.0740722222223 702.7777777777778 449.0740722222223 638.8888888888889C449.0740722222223 575 397.2222222222223 523.1481483333333 333.3333333333334 523.1481483333333z" />
    <glyph glyph-name="location"
      unicode="&#xE02B;"
      horiz-adv-x="777.7777777777778" d="M388.8888888888889 500C337.9629627777778 500 296.2962961111112 541.6666666666666 296.2962961111112 592.5925927777778C296.2962961111112 643.5185183333333 337.9629627777778 685.185185 388.8888888888889 685.185185C439.8148166666667 685.185185 481.4814833333334 643.5185183333333 481.4814833333334 592.5925927777778C481.4814833333334 541.6666666666666 439.8148166666667 500 388.8888888888889 500zM666.6666666666667 583.3333333333333C666.6666666666667 751.3888888888889 543.9814833333334 870.3703705555556 388.8888888888889 870.3703705555556C233.7962961111112 870.3703705555556 111.1111111111111 751.3888888888889 111.1111111111111 583.3333333333333C111.1111111111111 475 201.3888888888889 331.4814833333333 388.8888888888889 160.1851833333333C576.3888888888889 331.4814833333333 666.6666666666667 475 666.6666666666667 583.3333333333333zM388.8888888888889 962.9629627777778C583.3333333333334 962.9629627777778 759.2592611111112 813.8888888888889 759.2592611111112 583.3333333333333C759.2592611111112 429.6296277777778 635.6481500000001 247.6851833333333 388.8888888888889 37.0370388888889C142.1296294444445 247.6851833333333 18.5185183333333 429.6296277777778 18.5185183333333 583.3333333333333C18.5185183333333 813.8888888888889 194.4444444444445 962.9629627777778 388.8888888888889 962.9629627777778z" />
    <glyph glyph-name="lock"
      unicode="&#xE02C;"
      horiz-adv-x="761.9047619047619" d="M666.6666666666667 666.6666666666666L619.047619047619 666.6666666666666L619.047619047619 761.9047619047619C619.047619047619 893.3333333333333 512.3809523809524 1000 380.952380952381 1000C249.5238095238096 1000 142.8571428571429 893.3333333333333 142.8571428571429 761.9047619047619L142.8571428571429 666.6666666666666L95.2380952380952 666.6666666666666C42.8571428571429 666.6666666666666 0 623.8095238095239 0 571.4285714285714L0 95.2380952380952C0 42.8571428571428 42.8571428571429 0 95.2380952380952 0L666.6666666666667 0C719.047619047619 0 761.9047619047619 42.8571428571428 761.9047619047619 95.2380952380952L761.9047619047619 571.4285714285714C761.9047619047619 623.8095238095239 719.047619047619 666.6666666666666 666.6666666666667 666.6666666666666zM380.952380952381 238.0952380952381C328.5714285714286 238.0952380952381 285.7142857142857 280.952380952381 285.7142857142857 333.3333333333333C285.7142857142857 385.7142857142857 328.5714285714286 428.5714285714286 380.952380952381 428.5714285714286C433.3333333333333 428.5714285714286 476.1904761904762 385.7142857142857 476.1904761904762 333.3333333333333C476.1904761904762 280.952380952381 433.3333333333333 238.0952380952381 380.952380952381 238.0952380952381zM528.5714285714286 666.6666666666666L233.3333333333334 666.6666666666666L233.3333333333334 761.9047619047619C233.3333333333334 843.3333333333333 299.5238095238095 909.5238095238096 380.952380952381 909.5238095238096C462.3809523809524 909.5238095238096 528.5714285714286 843.3333333333333 528.5714285714286 761.9047619047619L528.5714285714286 666.6666666666666z" />
    <glyph glyph-name="luggage"
      unicode="&#xE02D;"
      horiz-adv-x="1076.923076923077" d="M948.7179461538462 769.2307692307693L794.8717923076922 769.2307692307693L794.8717923076922 871.7948715384616C794.8717923076922 928.7179486923076 749.2307692307692 974.3589743846154 692.3076923076923 974.3589743846154L384.6153846153846 974.3589743846154C327.6923076923077 974.3589743846154 282.0512823076923 928.7179486923076 282.0512823076923 871.7948715384616L282.0512823076923 769.2307692307693L128.2051284615384 769.2307692307693C71.2820513076923 769.2307692307693 25.6410256153846 723.5897438461539 25.6410256153846 666.666666923077L25.6410256153846 102.5641000000001C25.6410256153846 45.641023076923 71.2820513076923 0 128.2051284615384 0L948.7179461538462 0C1005.641023076923 0 1051.2820538461538 45.641023076923 1051.2820538461538 102.5641000000001L1051.2820538461538 666.666666923077C1051.2820538461538 723.5897438461539 1005.641023076923 769.2307692307693 948.7179461538462 769.2307692307693zM384.6153846153846 871.7948715384616L692.3076923076923 871.7948715384616L692.3076923076923 769.2307692307693L384.6153846153846 769.2307692307693L384.6153846153846 871.7948715384616zM948.7179461538462 282.0512823076923L128.2051284615384 282.0512823076923L128.2051284615384 666.666666923077L282.0512823076923 666.666666923077L282.0512823076923 564.1025638461539L384.6153846153846 564.1025638461539L384.6153846153846 666.666666923077L692.3076923076923 666.666666923077L692.3076923076923 564.1025638461539L794.8717923076922 564.1025638461539L794.8717923076922 666.666666923077L948.7179461538462 666.666666923077L948.7179461538462 282.0512823076923z" />
    <glyph glyph-name="person-outline"
      unicode="&#xE02E;"
      horiz-adv-x="1000" d="M500 881.25C572.5 881.25 631.25 822.5 631.25 750C631.25 677.5 572.5 618.75 500 618.75C427.5 618.75 368.75 677.5 368.75 750C368.75 822.5 427.5 881.25 500 881.25M500 318.75C685.625 318.75 881.2500000000001 227.5 881.2500000000001 187.5L881.2500000000001 118.7499999999999L118.75 118.7499999999999L118.75 187.5C118.75 227.5 314.375 318.75 500 318.75M500 1000C361.875 1000 250 888.125 250 750C250 611.875 361.875 500 500 500C638.125 500 750 611.875 750 750C750 888.125 638.125 1000 500 1000zM500 437.5C333.125 437.5 0 353.75 0 187.5L0 0L1000 0L1000 187.5C1000 353.75 666.875 437.5 500 437.5z" />
    <glyph glyph-name="person"
      unicode="&#xE02F;"
      horiz-adv-x="1000" d="M500 500C622.7777775 500 722.2222224999999 599.4444441666667 722.2222224999999 722.2222225C722.2222224999999 845 622.7777775 944.4444444166666 500 944.4444444166666C377.2222225 944.4444444166666 277.7777775 845 277.7777775 722.2222225C277.7777775 599.4444441666667 377.2222225 500 500 500zM500 388.8888891666667C351.6666666666667 388.8888891666667 55.5555555833333 314.4444441666667 55.5555555833333 166.6666666666668L55.5555555833333 55.5555583333335L944.4444416666666 55.5555583333335L944.4444416666666 166.6666666666668C944.4444416666666 314.4444441666667 648.3333333333334 388.8888891666667 500 388.8888891666667z" />
    <glyph glyph-name="pet"
      unicode="&#xE030;"
      horiz-adv-x="1076.923076923077" d="M25.6410257692308 666.6666665384616A128.2051280769231 128.2051280769231 0 0 1 282.051281923077 666.6666665384616A128.2051280769231 128.2051280769231 0 0 1 25.6410257692308 666.6666665384616M256.4102565384615 871.7948719230769A128.2051280769231 128.2051280769231 0 0 1 512.8205126923077 871.7948719230769A128.2051280769231 128.2051280769231 0 0 1 256.4102565384615 871.7948719230769M564.1025642307692 871.7948719230769A128.2051280769231 128.2051280769231 0 0 1 820.5128203846153 871.7948719230769A128.2051280769231 128.2051280769231 0 0 1 564.1025642307692 871.7948719230769M794.871795 666.6666665384616A128.2051280769231 128.2051280769231 0 0 1 1051.282051153846 666.6666665384616A128.2051280769231 128.2051280769231 0 0 1 794.871795 666.6666665384616M812.3076923076923 391.7948730769231C767.6923076923077 444.1025653846154 730.2564115384615 488.71795 685.1282038461538 541.0256423076924C661.5384615384614 568.71795 631.28205 596.4102576923077 595.3846153846154 608.71795C589.7435884615384 610.7692307692308 584.1025653846153 612.3076923076924 578.4615384615385 613.3333346153846C565.6410269230769 615.3846153846155 551.7948730769231 615.3846153846155 538.4615384615385 615.3846153846155C525.1282038461538 615.3846153846155 511.28205 615.3846153846155 497.9487192307692 612.8205115384615C492.3076923076923 611.7948730769231 486.6666653846154 610.2564115384615 481.0256423076923 608.2051269230769C445.1282038461539 595.8974346153846 415.3846153846154 568.2051269230769 391.28205 540.5128192307693C346.6666665384616 488.205126923077 309.2307692307692 443.5897423076924 264.1025642307692 391.2820500000001C196.9230769230769 324.1025653846154 114.3589742307692 249.7435884615385 129.7435896153846 145.641026923077C144.6153846153846 93.3333346153846 182.0512819230769 41.5384615384616 249.2307692307693 26.6666653846154C286.6666665384616 18.9743576923078 406.1538461538462 49.2307692307693 533.3333346153846 49.2307692307693L542.5641038461538 49.2307692307693C669.7435884615385 49.2307692307693 789.2307692307692 19.4871807692308 826.6666653846154 26.6666653846154C893.8461538461537 41.5384615384616 931.28205 93.8461538461539 946.1538461538462 145.641026923077C962.0512807692307 250.2564115384617 879.4871807692307 324.6153846153847 812.3076923076923 391.7948730769231L812.3076923076923 391.7948730769231z" />
    <glyph glyph-name="phone"
      unicode="&#xE031;"
      horiz-adv-x="1000" d="M219.791666875 563.020833125C294.7916668750001 415.625 415.625 295.3125 563.02083125 219.79166875L677.60416875 334.375C691.6666687500001 348.4375 712.5 353.125 730.7291687500001 346.875C789.0625 327.60416875 852.08333125 317.1875 916.66666875 317.1875C945.3125 317.1875 968.75 293.75 968.75 265.10416875L968.75 83.33333125C968.75 54.6875 945.3125 31.25 916.66666875 31.25C427.6041668750001 31.25 31.25 427.60416875 31.25 916.666666875C31.25 945.3125 54.6875 968.75 83.333333125 968.75L265.625 968.75C294.270833125 968.75 317.708333125 945.3125 317.708333125 916.666666875C317.708333125 851.5625 328.125 789.0625 347.395833125 730.7291668749999C353.125 712.5 348.958333125 692.1875 334.375 677.604166875L219.791666875 563.020833125z" />
    <glyph glyph-name="plus-circle"
      unicode="&#xE032;"
      horiz-adv-x="1000" d="M500 1000C223.8541666666666 1000 0 776.1458333333334 0 500C0 223.8750000000001 223.8541666666666 0 500 0S1000 223.8750000000001 1000 500C1000 776.1458333333334 776.1458333333334 1000 500 1000zM708.9791666666666 484.0416666666667C708.9791666666666 460.9375 690.2291666666666 456.8541666666667 680.7708333333333 456.2916666666667H543.6666666666666L543.5 318.6458333333334C543.4583333333334 293.2083333333334 524.0625 291.1041666666668 518.9166666666666 291.0208333333334L481.25 291.0625C475.625 291.1875 456.0208333333334 293.3333333333334 456.0625 318.7708333333333L456.2291666666667 456.3124999999999H318.6875C293.25 456.3124999999999 291.1458333333334 475.6874999999999 291.0208333333333 480.8541666666666V518.5416666666666C291.125 524.1666666666666 293.2708333333334 543.7708333333333 318.6875 543.7708333333333H456.3333333333333L456.4999999999999 678.4166666666666C456.6249999999999 684.7916666666665 458.7291666666666 709.0833333333333 483.3333333333333 709.0416666666666L516.2083333333333 709C539.3333333333333 708.9791666666666 543.3958333333333 690.2083333333333 543.9374999999999 680.75L543.7916666666666 543.75H678.3333333333334C684.7083333333333 543.625 709 541.5625 709 516.9375V484.0416666666667z" />
    <glyph glyph-name="print"
      unicode="&#xE033;"
      horiz-adv-x="1111.111111111111" d="M944.4444444444443 722.2222222222222L888.8888888888889 722.2222222222222L888.8888888888889 1000L222.2222222222222 1000L222.2222222222222 722.2222222222222L166.6666666666667 722.2222222222222C74.4444444444445 722.2222222222222 0 647.7777777777778 0 555.5555555555555L0 222.2222222222222L222.2222222222222 222.2222222222222L222.2222222222222 0L888.8888888888889 0L888.8888888888889 222.2222222222222L1111.111111111111 222.2222222222222L1111.111111111111 555.5555555555555C1111.111111111111 647.7777777777778 1036.6666666666667 722.2222222222222 944.4444444444443 722.2222222222222zM333.3333333333334 888.8888888888889L777.7777777777778 888.8888888888889L777.7777777777778 722.2222222222222L333.3333333333334 722.2222222222222L333.3333333333334 888.8888888888889zM777.7777777777778 222.2222222222222L777.7777777777778 111.1111111111111L333.3333333333334 111.1111111111111L333.3333333333334 333.3333333333333L777.7777777777778 333.3333333333333L777.7777777777778 222.2222222222222zM888.8888888888889 333.3333333333333L888.8888888888889 444.4444444444445L222.2222222222222 444.4444444444445L222.2222222222222 333.3333333333333L111.1111111111111 333.3333333333333L111.1111111111111 555.5555555555555C111.1111111111111 586.1111111111111 136.1111111111111 611.1111111111111 166.6666666666667 611.1111111111111L944.4444444444443 611.1111111111111C975.0000000000002 611.1111111111111 1000 586.1111111111111 1000 555.5555555555555L1000 333.3333333333333L888.8888888888889 333.3333333333333z" />
    <glyph glyph-name="questionmark-filled"
      unicode="&#xE034;"
      horiz-adv-x="1000" d="M500 976.1904762142856C237.1428571428572 976.1904762142856 23.8095237857143 762.8571428571429 23.8095237857143 500C23.8095237857143 237.1428571428571 237.1428571428572 23.8095214285714 500 23.8095214285714C762.8571428571429 23.8095214285714 976.1904785714286 237.1428571428571 976.1904785714286 500C976.1904785714286 762.8571428571429 762.8571428571429 976.1904762142856 500 976.1904762142856zM547.6190478571428 166.6666642857142L452.3809521428572 166.6666642857142L452.3809521428572 261.9047642857143L547.6190478571428 261.9047642857143L547.6190478571428 166.6666642857142zM646.1904764285715 535.7142857142858L603.3333335714286 491.9047621428571C569.0476192857143 457.1428571428571 547.6190478571428 428.5714285714286 547.6190478571428 357.1428571428571L452.3809521428572 357.1428571428571L452.3809521428572 380.9523807142857C452.3809521428572 433.3333335714285 473.8095235714286 480.9523807142857 508.0952378571429 515.7142857142857L567.1428571428572 575.7142857142857C584.761905 592.8571428571429 595.238095 616.6666664285715 595.238095 642.8571428571429C595.238095 695.2380949999999 552.3809521428572 738.0952378571428 500 738.0952378571428C447.6190478571429 738.0952378571428 404.761905 695.2380949999999 404.761905 642.8571428571429L309.5238092857143 642.8571428571429C309.5238092857143 748.0952378571428 394.761905 833.3333335714285 500 833.3333335714285C605.238095 833.3333335714285 690.4761907142857 748.0952378571428 690.4761907142857 642.8571428571429C690.4761907142857 600.9523807142857 673.3333335714285 562.8571428571429 646.1904764285715 535.7142857142858z" />
    <glyph glyph-name="questionmark"
      unicode="&#xE035;"
      horiz-adv-x="1000" d="M499.9977777777778 952.381111111111C250.1644444444445 952.381111111111 47.62 749.8366666666667 47.62 500.0033333333333C47.62 250.1588888888889 250.1644444444445 47.6144444444444 499.9977777777778 47.6144444444444C749.8422222222222 47.6144444444444 952.3866666666667 250.1588888888889 952.3866666666667 500.0033333333333C951.92 749.6588888888889 749.6533333333333 951.9255555555555 499.9977777777778 952.381111111111M499.9977777777778 0.0033333333333C223.8533333333333 0.0033333333333 -0.0022222222167 223.8588888888888 -0.0022222222167 500.0033333333333C-0.0022222222167 776.1477777777777 223.8533333333333 1000.00333333325 499.9977777777778 1000.00333333325C776.1422222222222 1000.00333333325 999.9977777777779 776.1477777777777 999.9977777777779 500.0033333333333C999.4755555555556 224.0700000000001 775.92 0.5255555555556 499.9977777777778 0.0033333333333M499.9977777777778 397.91C476.8311111111111 397.91 458.0422222222222 416.6877777777778 458.0422222222222 439.8655555555555L458.0422222222222 499.1655555555556C458.0422222222222 522.3322222222222 476.8311111111111 541.1211111111111 499.9977777777778 541.1211111111111C537.8422222222223 541.1211111111111 568.5311111111112 571.7988888888889 568.5311111111112 609.6544444444444C568.5311111111112 647.4988888888888 537.8422222222223 678.1877777777777 499.9977777777778 678.1877777777777C462.1533333333333 678.1877777777777 431.4644444444445 647.4988888888888 431.4644444444445 609.6544444444444C431.4644444444445 586.4877777777778 412.6866666666667 567.6877777777777 389.52 567.6877777777777C366.3422222222223 567.6877777777777 347.5533333333334 586.4877777777778 347.5533333333334 609.6544444444444C347.7977777777778 693.8433333333334 416.2422222222222 761.91 500.4311111111111 761.6662119444445C584.62 761.4211111111111 652.6755555555555 692.9766666666667 652.4428194444445 608.7877777777778C652.2533333333333 540.9100000000001 607.2088888888889 481.3433333333334 541.9533333333334 462.6655555555556L541.9533333333334 439.8655555555555C541.9533333333334 416.6877777777778 523.1755555555557 397.91 499.9977777777778 397.91M499.9977777777778 229.3777777777778C476.8311111111111 229.3777777777778 458.0422222222222 248.1555555555555 458.0422222222222 271.3333333333334L458.0422222222222 291.0555555555556C458.0422222222222 314.2333333333334 476.8311111111111 333.0111111111111 499.9977777777778 333.0111111111111C523.1755555555557 333.0111111111111 541.9533333333334 314.2333333333334 541.9533333333334 291.0555555555556L541.9533333333334 271.3333333333334C541.9533333333334 248.1555555555555 523.1755555555557 229.3777777777778 499.9977777777778 229.3777777777778" />
    <glyph glyph-name="star"
      unicode="&#xE036;"
      horiz-adv-x="1076.923076923077" d="M538.4615384615385 191.282053846154L855.3846153846152 0L771.2820538461538 360.5128207692308L1051.2820538461538 603.0769230769231L682.5641023076922 634.3589746153846L538.4615384615385 974.3589746153846L394.3589746153846 634.3589746153846L25.6410253846154 603.0769230769231L305.6410253846154 360.5128207692308L221.5384615384615 0z" />
    </font>
</defs>
</svg>
